#TITLE:El Alacran;
#SUBTITLE:~AMR original~;
#ARTIST:Sandy & Papo;
#TITLETRANSLIT:;
#SUBTITLETRANSLIT:;
#ARTISTTRANSLIT:;
#CREDIT:;
#BANNER:El Alacran.png;
#BACKGROUND:El Alacran-bg.png;
#LYRICSPATH:;
#CDTITLE:AMR.png;
#MUSIC:El Alacran.mp3;
#OFFSET:0.071;
#SAMPLESTART:50.645;
#SAMPLELENGTH:12.000;
#SELECTABLE:YES;
#BPMS:0.000=131.100,20.000=4195.200,36.000=1048.800,40.000=131.100;
#STOPS:20.000=0.680
,36.000=0.680
,40.000=0.240
,40.500=0.240
,41.000=0.240
,41.500=0.220
,42.000=0.220
,42.500=0.240
,239.250=0.220
,240.250=0.240
,241.000=0.120
,243.000=0.120
,244.500=0.220
;
#BGCHANGES:;
// cache tags:
#FIRSTBEAT:0.500;
#LASTBEAT:533.000;
#SONGFILENAME:Songs/Chilean Keyboard Megapack 3/(AMR) El Alacran/El Alacran.sm;
#HASMUSIC:1;
#HASBANNER:1;
#MUSICLENGTH:241.902;
// end cache tags

//---------------dance-single - ----------------
#NOTES:
     dance-single:
     :
     Challenge:
     12:
     0.932,0.992,1.000,0.207,0.783,1179.000,349.000,50.000,0.000,1.000:
0000
0000
0001
0100
0010
1000
0100
0010
1001
0000
0100
0000
0011
0000
0011
0000
,
0011
0000
1000
0001
0100
0010
1000
0010
0100
0000
0010
0000
1001
0000
1001
0000
,
1001
0000
0100
0010
0001
0100
0010
1000
0001
0000
0100
0000
1010
0000
1010
0000
,
1010
0000
1000
0001
0010
0100
1000
0010
0100
0000
0001
0000
0110
0000
0110
0000
,
0110
0000
0001
0010
0100
0000
0010
0000
0110
0000
0000
0000
0000
0000
0010
0000
,
1001
0000
0000
0000
,
0000
0000
0000
0000
,
0000
0000
0000
0000
,
0000
0000
0000
0000
,
0110
0000
0000
0000
,
0110
1001
0110
1001
0110
1001
0110
0000
,
0110
0000
0000
0000
0110
0000
0000
0010
1001
0000
1001
0000
0110
0000
0001
0000
,
1000
0000
0100
0000
0010
0001
0000
0001
0100
0000
0000
0000
0010
0000
1000
0000
,
0001
0000
0010
0000
0100
1000
0000
1000
0010
0000
0000
0000
0100
0000
0001
0000
,
1000
0000
0100
0000
0010
0001
0000
0001
0100
0000
0000
0000
0010
0000
1000
0000
,
0001
0000
0010
0000
0100
1000
0000
1000
0010
0000
0000
0000
0001
0000
1000
0001
,
0010
0000
0001
0010
0100
1000
0100
0010
0001
0000
0000
0000
1000
0000
0001
0010
,
0100
0000
0010
0001
0100
0001
1000
0001
0010
0100
1000
0000
0010
0000
0001
1000
,
0100
0000
0010
0100
0001
1000
0100
1000
0010
0000
0000
0000
0010
0000
0001
1000
,
0001
0000
0001
0010
0100
0000
0100
0010
0000
0010
0100
0010
0001
0100
0000
0010
,
1000
0100
0010
0001
0100
0000
0010
1000
0010
0000
0100
0001
0010
0100
0000
0100
,
0010
0001
0100
0010
1000
0000
0001
1000
0100
0000
0010
0001
0100
0010
0000
1000
,
0010
0000
0010
1000
0000
1000
0001
0000
1001
0000
0000
0000
0100
0010
0000
0010
,
0000
0010
0100
0000
1001
0000
0100
0010
0001
0000
0000
0100
0010
1000
0100
0010
,
0001
0000
1001
0000
0100
0010
1000
0010
0100
0000
1001
0000
0010
0100
0001
1000
,
0100
0000
1001
0000
0110
0000
0000
0010
0100
0000
0110
1000
0100
0010
0001
0110
,
0000
1000
0100
0010
0100
1000
0010
0100
0001
0000
0001
0000
1000
0001
0010
0100
,
1000
0000
1000
0010
0100
0001
1000
0100
0010
0000
0010
1001
0000
0010
0100
0001
,
1000
0000
0010
0100
0001
0000
0001
0000
2002
0000
3003
0010
0000
1000
0100
0010
,
0000
0010
0001
0100
0010
0000
1000
2002
3003
0000
0000
1001
0000
0010
0000
0010
,
1000
0010
0000
0010
0100
0010
0000
0010
1000
0001
0100
0010
1000
0000
0001
0100
,
0001
0000
0110
0000
0000
1010
0000
1010
0000
0010
1000
0100
0010
0001
0000
1000
,
0001
0100
0010
1000
0100
0010
0001
0010
0000
0010
0100
1000
0001
0000
0100
0010
,
1000
0010
0100
0001
0000
0100
0000
0100
0010
1000
0100
0010
0001
0010
0100
0010
,
1001
0000
0000
0010
1000
0100
0010
0100
1000
0001
0100
0010
1000
0010
0100
0000
,
0010
0001
1000
0100
0010
0001
0010
0100
0010
0000
0010
0000
2002
3003
0000
0000
,
0010
0000
0100
0001
0000
0001
0000
1000
0100
0000
0100
1000
0010
0000
1000
0000
,
0010
0000
0010
0100
0000
0100
0000
0001
1000
0000
2002
0000
0000
0000
0000
3003
,
0100
0000
0010
0001
0000
0001
0000
0001
0100
0000
0000
0000
0010
1000
0010
0000
,
0010
1000
0010
0000
0010
1000
0010
0000
0010
1000
0010
0000
2020
3030
0000
0000
,
1000
0000
0100
0010
0000
0010
0000
0010
0100
0000
0100
0010
0001
0000
0010
0000
,
0100
0000
0010
1000
0000
1000
0000
1000
0010
0000
0110
0000
2002
3003
0000
0000
,
0001
0000
1000
0010
0000
0010
0000
0010
1000
0000
0000
0000
0001
1000
0001
0000
,
0001
1000
0001
0000
0001
1000
0001
0000
0001
1000
0001
0100
0000
0010
1000
0010
,
0100
0001
0010
0100
1000
0000
0100
0010
0001
0000
0100
0010
1000
0010
0100
0001
,
0010
0100
1000
0001
0100
0010
0000
0010
1000
0000
1000
0001
1000
0100
0010
0001
,
0000
0001
1000
0001
0000
0100
0010
1000
0001
0000
0010
0100
1000
0100
1000
0100
,
1000
0001
1000
0001
1000
0000
0010
0100
0001
0000
0000
0000
0010
1000
0010
1000
,
0100
1000
0100
0010
0001
0010
0001
0100
0001
0000
0010
1000
0000
1000
0001
1000
,
0100
0000
0010
0001
0100
0001
1000
0001
0010
0000
0000
0010
1000
0000
0010
0100
,
0001
0010
0100
1000
0010
0100
0001
0100
0010
0000
1000
0100
0010
0100
1000
0010
,
0100
0001
0100
0010
1000
0010
0100
0010
0000
0100
0000
1100
0022
0033
2002
3103
,
0010
0001
0010
0000
0100
1000
0100
0000
0010
0000
0001
0000
0000
0000
0100
0010
,
1000
0001
0100
0010
0000
1000
0001
1000
0001
0000
0001
0100
0001
0000
0001
0100
,
0001
0000
0010
1000
0010
1000
0000
0100
0001
1000
0001
1000
0001
0000
0001
1000
,
0001
1000
0100
0010
0001
0100
0000
0100
0010
0000
0010
1000
0000
1000
0000
1000
,
0001
0000
0000
0100
0010
1000
0100
0010
0001
0000
0001
0010
0100
0010
0001
0000
,
1001
0000
1010
0100
0001
0000
0100
0010
1001
0000
1001
0100
0010
0001
0010
0000
,
1010
0000
1010
0100
0010
0000
0010
1000
0101
0000
0101
0010
1000
0000
1000
0000
,
0101
0000
0000
1000
0001
1000
0001
1000
0001
0000
0001
0000
0010
0010
0000
0000
,
0010
0010
0000
0000
0010
0000
0000
0000
0010
0010
0010
0010
0010
0000
0010
0000
,
0000
0000
0020
0030
2002
3003
0000
0000
1000
0000
0100
0010
0000
0010
0000
0010
,
0100
0000
1000
0001
1000
0000
0010
0000
0100
0000
0001
1000
0000
1000
0000
1000
,
0001
0000
2002
3003
0000
0000
0000
0000
0010
0000
0100
0001
0000
0001
0000
0001
,
1000
0000
0000
0000
0010
0100
0010
0000
0010
0100
0010
0000
0010
0100
0010
0000
,
0010
0100
0010
0000
0220
0330
0000
0000
1000
0000
0100
0010
0000
0010
0000
0010
,
0100
0000
1000
0001
1000
0000
0010
0000
0100
0000
0010
1000
0000
1000
0000
1000
,
0001
0000
0110
0000
2002
3003
0000
0000
0100
0000
0010
0001
0000
0001
0000
0001
,
1000
0000
1010
0110
0011
0110
1100
1001
,
0110
0000
2002
3003
0110
0000
0101
0000
1001
0000
0000
0000
1010
0000
0000
1000
,
0010
0000
0000
0000
0110
0000
0011
0000
1001
0000
0000
0000
0110
0000
0000
0010
,
1000
0000
0000
0000
0011
0000
0110
0000
1100
0000
0000
0000
1001
0000
0000
0010
,
0100
0000
0000
0000
1100
0000
0110
0000
0101
0000
0000
0000
1010
0000
0000
0001
,
0100
0000
0000
0000
0110
0000
1001
0000
0110
0000
0000
0000
1010
0000
0000
0001
,
0100
0000
0000
0000
0011
0000
1100
0000
0110
0000
0000
0000
0110
0000
0000
0001
,
0100
0000
0000
0000
1001
0000
0011
0000
0110
0000
0000
0000
1100
0000
0000
0010
,
0001
0000
2000
3000
2000
3000
0011
0000
1010
0000
0000
0000
0011
0000
0000
0100
,
0001
0000
0000
0000
0010
1000
0200
0000
0300
0000
0010
0001
0200
0000
0300
0000
,
0010
1000
0002
0000
0003
0000
0010
0001
2000
0000
3000
0010
0000
0010
0000
0010
,
1000
0000
0001
0000
0100
0001
0020
0000
0030
0000
0100
1000
0020
0000
0030
0000
,
0100
0001
2000
0000
3000
0000
0100
1000
0002
0000
0003
0100
0000
0100
0000
0100
,
0000
0100
0001
0000
0010
0001
2000
0000
3000
0000
0010
0100
2000
0000
3000
0000
,
0010
0001
0200
0000
0300
0000
0010
0100
0002
0000
0003
0100
0000
0100
0000
0100
,
0010
0000
0010
0000
1000
0001
0200
0000
0300
0000
1000
0010
0200
0000
0300
0000
,
1000
0001
2000
3000
1000
0001
1000
0001
1000
0001
1000
0001
1000
0001
1000
0001
,
1000
0001
1000
0001
2200
3300
0000
0000
0110
0000
1001
0000
0110
0000
0000
0000
,
0110
1001
0110
0000
0110
1001
0110
0011
,
1100
0011
1100
0000
1010
0101
1010
0000
,
1010
0000
0101
0000
1010
0000
0000
0000
1010
0000
0101
0000
0010
1000
0000
1000
,
0000
1000
0001
0000
1001
0000
0000
0000
1010
0000
0101
0000
1010
0000
0000
0000
,
1010
0101
1010
0000
1010
0101
1010
1001
,
0110
1001
0110
0000
1100
0011
1100
0000
,
1100
0000
0011
0000
1100
0000
0000
0000
0011
0000
0000
0000
1010
0000
0000
0010
,
1001
0000
1001
0000
0110
0000
1010
0000
1001
0000
0110
0000
0001
1000
0000
1000
,
0001
0000
1100
0000
0110
0000
1100
0000
1001
0000
0110
0000
0010
0001
0000
0001
,
0100
0000
0000
0000
1100
0000
0110
0000
0011
0000
1010
0000
0001
1000
0000
1000
,
0001
0110
0011
1100
0011
1100
0011
1100
,
0011
0000
1100
0000
0110
0000
1001
0000
0110
0000
1010
0000
0001
1000
0000
1000
,
0001
0000
0110
0000
1100
0000
0011
0000
0110
0000
1100
0000
0001
1000
0000
1000
,
0001
0000
0000
0000
1001
0000
1100
0000
0110
0000
0011
0000
1000
0001
0000
0001
,
1000
0110
1010
0101
1010
0101
1010
0101
,
1010
0000
0101
0000
1010
0000
1100
0000
0101
0000
0000
0000
0001
1000
0000
1000
,
0001
0000
0001
0000
1010
0000
0110
0000
0101
0000
0000
0000
1000
0010
0000
0010
,
1000
0000
1000
0000
0110
0000
1010
0000
1001
0000
0000
0000
0001
0100
0000
0100
,
0001
0000
0001
0000
1001
0000
1010
0000
1100
0000
0000
0000
0001
0100
0000
0100
,
0000
0000
0000
0000
1010
0000
0101
0000
1010
0000
0000
0000
1000
0010
0000
0010
,
1000
0000
1000
0000
0110
0000
1001
0000
1010
0000
0000
0000
1000
0100
0000
0100
,
1000
0000
1000
0000
0101
0000
0110
0000
1010
0000
0000
0000
1000
0001
0000
0001
,
1000
1000
0011
1100
0011
1100
0011
1100
,
0011
0000
1100
0000
2002
3003
0000
0000
1010
0000
0101
0000
1010
0000
0000
0000
,
1010
0101
1010
0000
1010
0101
1010
1001
,
0110
1001
0110
0000
1100
0011
1100
0000
,
1100
0000
0011
0000
1100
0000
0000
0000
1100
0000
0011
0000
1000
0100
0000
0100
,
0000
0100
0001
0000
0101
0000
0000
0000
1010
0000
0101
0000
1010
0000
0000
0000
,
1010
0101
1010
0000
1010
0101
1010
1001
,
0110
1001
0110
0000
1100
0011
1100
0000
,
1100
0000
0011
0000
1100
0000
0000
0000
1001
0000
0000
0000
0011
0000
0000
0100
,
1001
0000
1001
0000
0110
0000
0101
0000
1001
0000
0110
0000
1000
0001
0000
0001
,
1000
0000
0011
0000
0110
0000
0011
0000
1001
0000
0110
0000
0100
1000
0000
1000
,
0010
0000
0000
0000
0011
0000
0110
0000
1100
0000
0101
0000
1000
0001
0000
0001
,
1000
0110
1100
0011
1100
0011
1100
0011
,
1100
0000
0011
0000
1010
0000
0011
0000
0101
0000
1010
0000
0100
0001
0000
0001
,
0100
0000
1001
0000
1010
0000
1001
0000
0101
0000
1010
0000
0010
0100
0000
0100
,
1000
0000
0000
0000
1001
0000
1010
0000
0110
0000
0011
0000
0100
0001
0000
0001
,
0100
1010
0110
1001
0110
1001
0110
1001
,
0110
0000
1001
0000
1010
0000
0011
0000
0101
0000
0000
0000
0100
0001
0000
0001
,
0100
0000
1001
0000
1010
0000
1001
0000
0101
0000
0000
0000
0010
0100
0000
0100
,
1000
0000
0110
0000
1001
0000
1010
0000
0110
0000
0000
0000
0100
0001
0000
0001
,
0100
0000
1010
0000
0110
0000
0011
0000
1100
0000
0000
0000
0100
0001
0000
0001
,
0000
0000
0000
0000
1100
0000
1001
0000
0011
0000
0000
0000
0010
0001
0000
0001
,
0010
0000
0101
0000
1100
0000
0101
0000
0011
0000
0000
0000
1000
0010
0000
0010
,
0100
0000
0011
0000
0101
0000
1100
0000
1010
0000
0000
0000
0010
0001
0000
0001
,
0010
1100
1010
0101
1010
0101
1010
0101
,
1010
0202
0303
0000
0000
0000
0000
0000
;
